<?xml version="1.0" standalone="no"?>
<!DOCTYPE svg PUBLIC "-//W3C//DTD SVG 1.1//EN" "http://www.w3.org/Graphics/SVG/1.1/DTD/svg11.dtd" >
<svg xmlns="http://www.w3.org/2000/svg">
<metadata>Generated by IcoMoon</metadata>
<defs>
<font id="icomoon" horiz-adv-x="1024">
<font-face units-per-em="1024" ascent="960" descent="-64" />
<missing-glyph horiz-adv-x="1024" />
<glyph unicode="&#x20;" d="" horiz-adv-x="512" />
<glyph unicode="&#x50;" d="M880.634 829.226c25.698-12.576 48.094-30.486 64.502-52.482 34.536-46.3 44.236-109.372 28.836-187.466-15.56-79.026-50.416-145.734-101.166-194.044-9.282-9.702-19.222-18.746-29.804-27.080-54.356-42.802-122.998-65.428-198.508-65.428h-240.060l-64.564-302.726h-132.424l10.086 46.3h46.128l64.564 302.726h188.27c180.25 0 330.938 111.078 371.258 299.936 45.722 213.834-107.598 311.038-239.41 311.038h-449.278l-199.064-913.7h152.032l-24.032-110.3h263.66l64.564 302.726h188.27c180.25 0 330.938 111.078 371.258 299.936 33.716 157.68-40.804 251.932-135.118 290.564zM422.344 773.918h129.132c64.592 0 107.602-55.538 88.786-124.956-16.136-69.44-83.386-124.976-150.64-124.976h-123.758l56.48 249.932z" />
<glyph unicode="&#x51;" d="M880.634 829.226c25.698-12.576 48.094-30.486 64.502-52.482 34.536-46.3 44.236-109.372 28.836-187.466-15.56-79.026-50.416-145.734-101.166-194.044-9.282-9.702-19.222-18.746-29.804-27.080-54.356-42.802-122.998-65.428-198.508-65.428h-240.060l-64.564-302.726h-132.424l10.086 46.3h46.128l64.564 302.726h188.27c180.25 0 330.938 111.078 371.258 299.936 45.722 213.834-107.598 311.038-239.41 311.038h-449.278l-199.064-913.7h152.032l-24.032-110.3h263.66l64.564 302.726h188.27c180.25 0 330.938 111.078 371.258 299.936 33.716 157.68-40.804 251.932-135.118 290.564zM422.344 773.918h129.132c64.592 0 107.602-55.538 88.786-124.956-16.136-69.44-83.386-124.976-150.64-124.976h-123.758l56.48 249.932z" />
<glyph unicode="&#x65;" d="M864 960c88.364 0 160-71.634 160-160 0-36.020-11.91-69.258-32-96l-64-64-224 224 64 64c26.742 20.090 59.978 32 96 32zM64 224l-64-288 288 64 592 592-224 224-592-592zM715.578 596.422l-448-448-55.156 55.156 448 448 55.156-55.156z" />
<glyph unicode="&#xe000;" d="M1022.469 448c0-281.92-228.539-510.469-510.469-510.469-281.92 0-510.469 228.549-510.469 510.469 0 281.927 228.549 510.469 510.469 510.469 281.927 0 510.469-228.542 510.469-510.469zM374.087 427.52l137.904 207.733 137.897-207.733h-275.801zM511.991 738.832l-315.415-475.152h64.512l71.762 112.64h358.311l71.721-112.64h64.544l-315.433 475.152z" />
<glyph unicode="&#xe001;" d="M674.816 380.928c-36.761 0-66.56-41.266-66.56-92.11 0-50.894 29.799-92.16 66.56-92.16s66.56 41.266 66.56 92.16c-0.050 50.894-29.849 92.11-66.56 92.11zM906.546 620.75c7.577 18.688 7.936 124.928-32.462 226.61 0 0-92.775-10.137-233.063-106.446-29.44 8.142-79.257 12.185-129.024 12.185-49.817 0-99.584-4.096-129.074-12.185-140.235 96.309-232.958 106.446-232.958 106.446-40.398-101.682-40.091-207.922-32.462-226.61-47.513-51.611-76.544-113.563-76.544-198.197 0-367.922 305.255-373.81 382.311-373.81 17.458 0 52.174-0.050 88.782-0.103 36.608 0.050 71.321 0.103 88.679 0.103 77.106 0 382.311 5.888 382.311 373.81-0.002 84.633-28.981 146.585-76.496 198.197zM513.433 93.952h-2.816c-193.127 0-343.552 23.040-343.552 210.738 0 44.953 15.922 86.681 53.554 121.294 62.926 57.703 169.266 27.136 289.998 27.136 0.462 0 0.974 0 1.433 0.050 0.512 0 0.974-0.050 1.383-0.050 120.729 0 227.122 30.567 289.998-27.136 37.632-34.61 53.504-76.338 53.504-121.294 0-187.698-150.325-210.738-343.502-210.738zM349.234 380.928c-36.761 0-66.56-41.266-66.56-92.11 0-50.894 29.799-92.16 66.56-92.16s66.56 41.266 66.56 92.16c0 50.894-29.797 92.11-66.56 92.11z" />
<glyph unicode="&#xe002;" d="M983.040 740.199c-34.713-15.41-71.936-25.753-111.054-30.464 39.936 23.911 70.606 61.799 84.992 106.905-37.326-22.119-78.695-38.247-122.674-46.898-35.278 37.582-85.504 61.031-141.106 61.031-106.752 0-193.28-86.528-193.28-193.23 0-15.154 1.689-29.902 5.017-44.032-160.615 8.039-303.054 84.992-398.336 201.934-16.693-28.519-26.265-61.749-26.265-97.179 0-67.072 34.151-126.208 86.016-160.871-31.694 1.024-61.49 9.678-87.552 24.167 0-0.818 0-1.586 0-2.407 0-93.646 66.663-171.726 155.033-189.543-16.178-4.402-33.28-6.759-50.944-6.759-12.441 0-24.526 1.177-36.352 3.431 24.576-76.8 96-132.658 180.53-134.194-66.151-51.865-149.454-82.738-240.025-82.738-15.616 0-30.976 0.921-46.080 2.713 85.504-54.834 187.086-86.834 296.295-86.834 355.481 0 549.888 294.503 549.888 549.938 0 8.345-0.153 16.69-0.562 24.985 37.785 27.239 70.501 61.287 96.459 100.046z" />
<glyph unicode="&#xe003;" d="M768 748.594h-146.226c-17.305 0-36.608-22.734-36.608-53.198v-105.573h182.834v-150.528h-182.834v-452.096h-172.647v452.046h-156.519v150.578h156.519v88.576c0 127.026 88.167 230.4 209.202 230.4h146.279v-160.206z" />
<glyph unicode="&#xe004;" d="M101.888 673.842c0-76.441 25.55-131.687 75.879-164.096 41.216-26.574 89.088-30.567 113.97-30.567 6.041 0 10.855 0.256 14.233 0.462 0 0-7.886-51.353 30.208-102.194l-1.742 0.050c-65.998 0-281.294-13.824-281.294-190.823 0-180.071 197.735-189.184 237.362-189.184 3.122 0 4.914 0.050 4.914 0.050 0.462 0 3.278-0.103 8.089-0.103 25.447 0 91.239 3.175 152.37 32.921 79.257 38.45 119.502 105.422 119.502 198.912 0 90.368-61.234 144.128-105.984 183.449-27.289 23.961-50.894 44.647-50.894 64.768 0 20.48 17.202 35.89 39.015 55.399 35.225 31.538 68.505 76.441 68.505 161.33 0 74.649-9.678 124.722-69.326 156.466 6.247 3.175 28.21 5.479 39.118 7.015 32.306 4.402 79.566 9.422 79.566 35.79l0.005 5.072h-235.417c-2.354-0.050-238.080-8.807-238.080-224.718zM481.945 212.377c4.505-71.986-57.088-125.134-149.554-131.84-93.902-6.912-171.264 35.378-175.769 107.367-2.151 34.56 13.006 68.402 42.752 95.385 30.208 27.289 71.577 44.135 116.686 47.513 5.326 0.306 10.599 0.562 15.872 0.562 86.885 0.002 145.765-51.095 150.014-118.987zM420.455 723.15c23.090-81.255-11.776-166.194-67.328-181.863-6.4-1.792-13.006-2.713-19.662-2.713-50.944 0-101.376 51.506-120.064 122.471-10.443 39.883-9.625 74.699 2.357 108.235 11.776 32.921 32.921 55.246 59.545 62.72 6.4 1.842 13.056 2.713 19.712 2.713 61.44 0 100.967-25.497 125.44-111.563zM817.202 546.201v153.6h-97.28v-153.6h-153.6v-97.28h153.6v-153.6h97.28v153.6h153.6v97.28h-153.6z" />
<glyph unicode="&#xe005;" d="M441.138 282.727c-26.88-140.953-59.698-276.121-156.978-346.727-30.002 213.095 44.082 373.095 78.489 542.976-58.674 98.816 7.065 297.575 130.866 248.576 152.32-60.263-131.89-367.257 58.88-405.607 199.218-40.039 280.526 345.6 157.031 470.99-178.482 181.145-519.577 4.199-477.593-255.029 10.19-63.385 75.673-82.638 26.162-170.087-114.226 25.294-148.327 115.406-143.922 235.52 7.065 196.558 176.64 334.183 346.727 353.23 215.143 24.114 417.024-78.951 444.825-281.294 31.385-228.352-97.024-475.698-327.118-457.881-62.309 4.763-88.473 35.637-137.369 65.333z" />
<glyph unicode="&#xe006;" d="M286.67 522.649c0 83.815 22.222 137.113 96.718 149.095 26.009 5.12 80.178 3.278 114.638 3.278v-128c0-1.127 0.153-3.225 0.462-4.302 1.378-5.12 6.039-8.96 11.618-8.96 3.175 0 6.094 1.639 9.166 4.608l319.232 319.182-451.993 0.050c-188.11 0-284.11-108.338-284.11-310.578v-424.345l184.27 184.423v215.55zM737.383 588.85v-215.502c0-83.815-22.272-137.166-96.768-149.095-26.009-5.12-80.128-3.278-114.585-3.278v128c0 1.127-0.206 3.225-0.462 4.302-1.433 5.17-6.144 8.96-11.726 9.010-3.175 0-6.041-1.639-9.166-4.658l-319.232-319.129 452.098-0.101c188.057 0 284.057 108.288 284.057 310.578v424.347l-184.217-184.475z" />
<glyph unicode="&#xe007;" d="M961.024 432.64l-410.83 411.186c-20.992 21.81-55.346 21.81-76.338 0l-410.88-411.186c-21.042-21.76-13.209-39.63 17.408-39.63h85.657v-315.801c0-22.784 0.974-41.422 42.19-41.422h199.424v316.825h208.64v-316.825h209.358c31.438 0 32.306 18.585 32.306 41.422v315.801h85.607c30.565 0 38.45 17.819 17.458 39.63z" />
<glyph unicode="&#xe008;" d="M81.614 689.358c24.985-13.465 371.15-199.374 384.050-206.286 12.85-6.912 29.543-10.24 46.336-10.24 16.846 0 33.536 3.328 46.386 10.29 12.903 6.912 359.015 192.818 384 206.286 25.038 13.415 48.693 55.552 2.766 55.552h-866.254c-45.925 0-22.322-42.137 2.715-55.602zM952.985 586.958c-28.416-14.848-377.191-197.17-394.599-206.286s-29.541-10.29-46.386-10.29c-16.793 0-28.928 1.177-46.336 10.29s-366.233 191.488-394.599 206.286c-20.018 10.443-19.865-1.792-19.865-11.214s0-375.552 0-375.552c0-21.504 28.622-49.152 50.791-49.152h820.071c22.222 0 50.738 27.648 50.738 49.102 0 0 0 366.13 0 375.552 0 9.472 0.206 21.707-19.815 11.264z" />
<glyph unicode="&#xe009;" d="M204.8 89.6c0-56.526 45.874-102.4 102.4-102.4 56.576 0 102.4 45.874 102.4 102.4s-45.824 102.4-102.4 102.4c-56.526 0-102.4-45.874-102.4-102.4zM716.8 89.6c0-56.526 45.874-102.4 102.4-102.4 56.576 0 102.4 45.874 102.4 102.4s-45.824 102.4-102.4 102.4c-56.526 0-102.4-45.874-102.4-102.4zM386.407 331.673l566.731 161.895c10.805 3.122 19.662 14.848 19.662 26.112v281.6h-721.92v87.040c0 11.264-9.166 20.48-20.48 20.48h-158.72c-11.264 0-20.48-9.216-20.48-20.48v-81.92h99.481l100.761-463.719 9.728-48.281v-76.8c0-11.264 9.216-20.48 20.43-20.48h670.77c11.214 0 20.43 9.216 20.43 20.48v76.8h-575.897c-58.83 0-60.057 23.040-10.496 37.273z" />
<glyph unicode="&#xe00a;" d="M1022.469 448c0-281.92-228.539-510.469-510.469-510.469-281.92 0-510.469 228.549-510.469 510.469 0 281.927 228.549 510.469 510.469 510.469 281.927 0 510.469-228.542 510.469-510.469zM374.087 427.52l137.904 207.733 137.897-207.733h-275.801zM511.991 738.832l-315.415-475.152h64.512l71.762 112.64h358.311l71.721-112.64h64.544l-315.433 475.152z" />
<glyph unicode="&#xe00b;" d="M674.816 380.928c-36.761 0-66.56-41.266-66.56-92.11 0-50.894 29.799-92.16 66.56-92.16s66.56 41.266 66.56 92.16c-0.050 50.894-29.849 92.11-66.56 92.11zM906.546 620.75c7.577 18.688 7.936 124.928-32.462 226.61 0 0-92.775-10.137-233.063-106.446-29.44 8.142-79.257 12.185-129.024 12.185-49.817 0-99.584-4.096-129.074-12.185-140.235 96.309-232.958 106.446-232.958 106.446-40.398-101.682-40.091-207.922-32.462-226.61-47.513-51.611-76.544-113.563-76.544-198.197 0-367.922 305.255-373.81 382.311-373.81 17.458 0 52.174-0.050 88.782-0.103 36.608 0.050 71.321 0.103 88.679 0.103 77.106 0 382.311 5.888 382.311 373.81-0.002 84.633-28.981 146.585-76.496 198.197zM513.433 93.952h-2.816c-193.127 0-343.552 23.040-343.552 210.738 0 44.953 15.922 86.681 53.554 121.294 62.926 57.703 169.266 27.136 289.998 27.136 0.462 0 0.974 0 1.433 0.050 0.512 0 0.974-0.050 1.383-0.050 120.729 0 227.122 30.567 289.998-27.136 37.632-34.61 53.504-76.338 53.504-121.294 0-187.698-150.325-210.738-343.502-210.738zM349.234 380.928c-36.761 0-66.56-41.266-66.56-92.11 0-50.894 29.799-92.16 66.56-92.16s66.56 41.266 66.56 92.16c0 50.894-29.797 92.11-66.56 92.11z" />
<glyph unicode="&#xe00c;" d="M983.040 740.199c-34.713-15.41-71.936-25.753-111.054-30.464 39.936 23.911 70.606 61.799 84.992 106.905-37.326-22.119-78.695-38.247-122.674-46.898-35.278 37.582-85.504 61.031-141.106 61.031-106.752 0-193.28-86.528-193.28-193.23 0-15.154 1.689-29.902 5.017-44.032-160.615 8.039-303.054 84.992-398.336 201.934-16.693-28.519-26.265-61.749-26.265-97.179 0-67.072 34.151-126.208 86.016-160.871-31.694 1.024-61.49 9.678-87.552 24.167 0-0.818 0-1.586 0-2.407 0-93.646 66.663-171.726 155.033-189.543-16.178-4.402-33.28-6.759-50.944-6.759-12.441 0-24.526 1.177-36.352 3.431 24.576-76.8 96-132.658 180.53-134.194-66.151-51.865-149.454-82.738-240.025-82.738-15.616 0-30.976 0.921-46.080 2.713 85.504-54.834 187.086-86.834 296.295-86.834 355.481 0 549.888 294.503 549.888 549.938 0 8.345-0.153 16.69-0.562 24.985 37.785 27.239 70.501 61.287 96.459 100.046z" />
<glyph unicode="&#xe00d;" d="M768 748.594h-146.226c-17.305 0-36.608-22.734-36.608-53.198v-105.573h182.834v-150.528h-182.834v-452.096h-172.647v452.046h-156.519v150.578h156.519v88.576c0 127.026 88.167 230.4 209.202 230.4h146.279v-160.206z" />
<glyph unicode="&#xe00e;" d="M101.888 673.842c0-76.441 25.55-131.687 75.879-164.096 41.216-26.574 89.088-30.567 113.97-30.567 6.041 0 10.855 0.256 14.233 0.462 0 0-7.886-51.353 30.208-102.194l-1.742 0.050c-65.998 0-281.294-13.824-281.294-190.823 0-180.071 197.735-189.184 237.362-189.184 3.122 0 4.914 0.050 4.914 0.050 0.462 0 3.278-0.103 8.089-0.103 25.447 0 91.239 3.175 152.37 32.921 79.257 38.45 119.502 105.422 119.502 198.912 0 90.368-61.234 144.128-105.984 183.449-27.289 23.961-50.894 44.647-50.894 64.768 0 20.48 17.202 35.89 39.015 55.399 35.225 31.538 68.505 76.441 68.505 161.33 0 74.649-9.678 124.722-69.326 156.466 6.247 3.175 28.21 5.479 39.118 7.015 32.306 4.402 79.566 9.422 79.566 35.79l0.005 5.072h-235.417c-2.354-0.050-238.080-8.807-238.080-224.718zM481.945 212.377c4.505-71.986-57.088-125.134-149.554-131.84-93.902-6.912-171.264 35.378-175.769 107.367-2.151 34.56 13.006 68.402 42.752 95.385 30.208 27.289 71.577 44.135 116.686 47.513 5.326 0.306 10.599 0.562 15.872 0.562 86.885 0.002 145.765-51.095 150.014-118.987zM420.455 723.15c23.090-81.255-11.776-166.194-67.328-181.863-6.4-1.792-13.006-2.713-19.662-2.713-50.944 0-101.376 51.506-120.064 122.471-10.443 39.883-9.625 74.699 2.357 108.235 11.776 32.921 32.921 55.246 59.545 62.72 6.4 1.842 13.056 2.713 19.712 2.713 61.44 0 100.967-25.497 125.44-111.563zM817.202 546.201v153.6h-97.28v-153.6h-153.6v-97.28h153.6v-153.6h97.28v153.6h153.6v97.28h-153.6z" />
<glyph unicode="&#xe00f;" d="M441.138 282.727c-26.88-140.953-59.698-276.121-156.978-346.727-30.002 213.095 44.082 373.095 78.489 542.976-58.674 98.816 7.065 297.575 130.866 248.576 152.32-60.263-131.89-367.257 58.88-405.607 199.218-40.039 280.526 345.6 157.031 470.99-178.482 181.145-519.577 4.199-477.593-255.029 10.19-63.385 75.673-82.638 26.162-170.087-114.226 25.294-148.327 115.406-143.922 235.52 7.065 196.558 176.64 334.183 346.727 353.23 215.143 24.114 417.024-78.951 444.825-281.294 31.385-228.352-97.024-475.698-327.118-457.881-62.309 4.763-88.473 35.637-137.369 65.333z" />
<glyph unicode="&#xe010;" d="M286.67 522.649c0 83.815 22.222 137.113 96.718 149.095 26.009 5.12 80.178 3.278 114.638 3.278v-128c0-1.127 0.153-3.225 0.462-4.302 1.378-5.12 6.039-8.96 11.618-8.96 3.175 0 6.094 1.639 9.166 4.608l319.232 319.182-451.993 0.050c-188.11 0-284.11-108.338-284.11-310.578v-424.345l184.27 184.423v215.55zM737.383 588.85v-215.502c0-83.815-22.272-137.166-96.768-149.095-26.009-5.12-80.128-3.278-114.585-3.278v128c0 1.127-0.206 3.225-0.462 4.302-1.433 5.17-6.144 8.96-11.726 9.010-3.175 0-6.041-1.639-9.166-4.658l-319.232-319.129 452.098-0.101c188.057 0 284.057 108.288 284.057 310.578v424.347l-184.217-184.475z" />
<glyph unicode="&#xe011;" d="M961.024 432.64l-410.83 411.186c-20.992 21.81-55.346 21.81-76.338 0l-410.88-411.186c-21.042-21.76-13.209-39.63 17.408-39.63h85.657v-315.801c0-22.784 0.974-41.422 42.19-41.422h199.424v316.825h208.64v-316.825h209.358c31.438 0 32.306 18.585 32.306 41.422v315.801h85.607c30.565 0 38.45 17.819 17.458 39.63z" />
<glyph unicode="&#xe012;" d="M81.614 689.358c24.985-13.465 371.15-199.374 384.050-206.286 12.85-6.912 29.543-10.24 46.336-10.24 16.846 0 33.536 3.328 46.386 10.29 12.903 6.912 359.015 192.818 384 206.286 25.038 13.415 48.693 55.552 2.766 55.552h-866.254c-45.925 0-22.322-42.137 2.715-55.602zM952.985 586.958c-28.416-14.848-377.191-197.17-394.599-206.286s-29.541-10.29-46.386-10.29c-16.793 0-28.928 1.177-46.336 10.29s-366.233 191.488-394.599 206.286c-20.018 10.443-19.865-1.792-19.865-11.214s0-375.552 0-375.552c0-21.504 28.622-49.152 50.791-49.152h820.071c22.222 0 50.738 27.648 50.738 49.102 0 0 0 366.13 0 375.552 0 9.472 0.206 21.707-19.815 11.264z" />
<glyph unicode="&#xe013;" d="M204.8 89.6c0-56.526 45.874-102.4 102.4-102.4 56.576 0 102.4 45.874 102.4 102.4s-45.824 102.4-102.4 102.4c-56.526 0-102.4-45.874-102.4-102.4zM716.8 89.6c0-56.526 45.874-102.4 102.4-102.4 56.576 0 102.4 45.874 102.4 102.4s-45.824 102.4-102.4 102.4c-56.526 0-102.4-45.874-102.4-102.4zM386.407 331.673l566.731 161.895c10.805 3.122 19.662 14.848 19.662 26.112v281.6h-721.92v87.040c0 11.264-9.166 20.48-20.48 20.48h-158.72c-11.264 0-20.48-9.216-20.48-20.48v-81.92h99.481l100.761-463.719 9.728-48.281v-76.8c0-11.264 9.216-20.48 20.43-20.48h670.77c11.214 0 20.43 9.216 20.43 20.48v76.8h-575.897c-58.83 0-60.057 23.040-10.496 37.273z" />
<glyph unicode="&#xe953;" d="M320 576h128v-128h-128zM512 576h128v-128h-128zM704 576h128v-128h-128zM128 192h128v-128h-128zM320 192h128v-128h-128zM512 192h128v-128h-128zM320 384h128v-128h-128zM512 384h128v-128h-128zM704 384h128v-128h-128zM128 384h128v-128h-128zM832 960v-64h-128v64h-448v-64h-128v64h-128v-1024h960v1024h-128zM896 0h-832v704h832v-704z" />
<glyph unicode="&#xf001;" d="M0 960l1024-1024h-1024z" />
<glyph unicode="&#xf004;" d="M512 9.143q-14.857 0-25.143 10.286l-356.571 344q-5.714 4.571-15.714 14.857t-31.714 37.429-38.857 55.714-30.571 69.143-13.429 78.857q0 125.714 72.571 196.571t200.571 70.857q35.429 0 72.286-12.286t68.571-33.143 54.571-39.143 43.429-38.857q20.571 20.571 43.429 38.857t54.571 39.143 68.571 33.143 72.286 12.286q128 0 200.571-70.857t72.571-196.571q0-126.286-130.857-257.143l-356-342.857q-10.286-10.286-25.143-10.286z" />
<glyph unicode="&#xf005;" d="M512 9.143q-14.857 0-25.143 10.286l-356.571 344q-5.714 4.571-15.714 14.857t-31.714 37.429-38.857 55.714-30.571 69.143-13.429 78.857q0 125.714 72.571 196.571t200.571 70.857q35.429 0 72.286-12.286t68.571-33.143 54.571-39.143 43.429-38.857q20.571 20.571 43.429 38.857t54.571 39.143 68.571 33.143 72.286 12.286q128 0 200.571-70.857t72.571-196.571q0-126.286-130.857-257.143l-356-342.857q-10.286-10.286-25.143-10.286z" />
<glyph unicode="&#xf00c;" d="M954.857 636.571q0-22.857-16-38.857l-491.429-491.429q-16-16-38.857-16t-38.857 16l-284.571 284.571q-16 16-16 38.857t16 38.857l77.714 77.714q16 16 38.857 16t38.857-16l168-168.571 374.857 375.429q16 16 38.857 16t38.857-16l77.714-77.714q16-16 16-38.857z" />
<glyph unicode="&#xf00d;" d="M741.714 204.571q0-22.857-16-38.857l-77.714-77.714q-16-16-38.857-16t-38.857 16l-168 168-168-168q-16-16-38.857-16t-38.857 16l-77.714 77.714q-16 16-16 38.857t16 38.857l168 168-168 168q-16 16-16 38.857t16 38.857l77.714 77.714q16 16 38.857 16t38.857-16l168-168 168 168q16 16 38.857 16t38.857-16l77.714-77.714q16-16 16-38.857t-16-38.857l-168-168 168-168q16-16 16-38.857z" horiz-adv-x="805" />
<glyph unicode="&#xf00e;" d="M954.857 636.571q0-22.857-16-38.857l-491.429-491.429q-16-16-38.857-16t-38.857 16l-284.571 284.571q-16 16-16 38.857t16 38.857l77.714 77.714q16 16 38.857 16t38.857-16l168-168.571 374.857 375.429q16 16 38.857 16t38.857-16l77.714-77.714q16-16 16-38.857z" />
<glyph unicode="&#xf00f;" d="M741.714 204.571q0-22.857-16-38.857l-77.714-77.714q-16-16-38.857-16t-38.857 16l-168 168-168-168q-16-16-38.857-16t-38.857 16l-77.714 77.714q-16 16-16 38.857t16 38.857l168 168-168 168q-16 16-16 38.857t16 38.857l77.714 77.714q16 16 38.857 16t38.857-16l168-168 168 168q16 16 38.857 16t38.857-16l77.714-77.714q16-16 16-38.857t-16-38.857l-168-168 168-168q16-16 16-38.857z" horiz-adv-x="805" />
<glyph unicode="&#xf017;" d="M621.714 429.714v-36.571q0-7.429-5.429-12.857t-12.857-5.429h-219.429q-7.429 0-12.857 5.429t-5.429 12.857v256q0 7.429 5.429 12.857t12.857 5.429h36.571q7.429 0 12.857-5.429t5.429-12.857v-201.143h164.571q7.429 0 12.857-5.429t5.429-12.857zM731.429 448q0 59.429-23.143 113.429t-62.571 93.429-93.429 62.571-113.429 23.143-113.429-23.143-93.429-62.571-62.571-93.429-23.143-113.429 23.143-113.429 62.571-93.429 93.429-62.571 113.429-23.143 113.429 23.143 93.429 62.571 62.571 93.429 23.143 113.429zM877.714 448q0-119.429-58.857-220.286t-159.714-159.714-220.286-58.857-220.286 58.857-159.714 159.714-58.857 220.286 58.857 220.286 159.714 159.714 220.286 58.857 220.286-58.857 159.714-159.714 58.857-220.286z" horiz-adv-x="878" />
<glyph unicode="&#xf018;" d="M621.714 429.714v-36.571q0-7.429-5.429-12.857t-12.857-5.429h-219.429q-7.429 0-12.857 5.429t-5.429 12.857v256q0 7.429 5.429 12.857t12.857 5.429h36.571q7.429 0 12.857-5.429t5.429-12.857v-201.143h164.571q7.429 0 12.857-5.429t5.429-12.857zM731.429 448q0 59.429-23.143 113.429t-62.571 93.429-93.429 62.571-113.429 23.143-113.429-23.143-93.429-62.571-62.571-93.429-23.143-113.429 23.143-113.429 62.571-93.429 93.429-62.571 113.429-23.143 113.429 23.143 93.429 62.571 62.571 93.429 23.143 113.429zM877.714 448q0-119.429-58.857-220.286t-159.714-159.714-220.286-58.857-220.286 58.857-159.714 159.714-58.857 220.286 58.857 220.286 159.714 159.714 220.286 58.857 220.286-58.857 159.714-159.714 58.857-220.286z" horiz-adv-x="878" />
<glyph unicode="&#xf01e;" d="M877.714 813.714v-256q0-14.857-10.857-25.714t-25.714-10.857h-256q-24 0-33.714 22.857-9.714 22.286 8 39.429l78.857 78.857q-84.571 78.286-199.429 78.286-59.429 0-113.429-23.143t-93.429-62.571-62.571-93.429-23.143-113.429 23.143-113.429 62.571-93.429 93.429-62.571 113.429-23.143q96.571 0 173.714 56.857t105.714 149.429q4 13.143 17.143 13.143h113.714q9.143 0 14.286-6.857 5.714-7.429 4-15.429-22.286-100-84.286-178.286t-152-121.714-192.286-43.429q-89.143 0-170.286 34.857t-140 93.714-93.714 140-34.857 170.286 34.857 170.286 93.714 140 140 93.714 170.286 34.857q84 0 162.571-31.714t139.714-89.429l74.286 73.714q16.571 17.714 40 8 22.286-9.714 22.286-33.714z" horiz-adv-x="878" />
<glyph unicode="&#xf01f;" d="M877.714 813.714v-256q0-14.857-10.857-25.714t-25.714-10.857h-256q-24 0-33.714 22.857-9.714 22.286 8 39.429l78.857 78.857q-84.571 78.286-199.429 78.286-59.429 0-113.429-23.143t-93.429-62.571-62.571-93.429-23.143-113.429 23.143-113.429 62.571-93.429 93.429-62.571 113.429-23.143q96.571 0 173.714 56.857t105.714 149.429q4 13.143 17.143 13.143h113.714q9.143 0 14.286-6.857 5.714-7.429 4-15.429-22.286-100-84.286-178.286t-152-121.714-192.286-43.429q-89.143 0-170.286 34.857t-140 93.714-93.714 140-34.857 170.286 34.857 170.286 93.714 140 140 93.714 170.286 34.857q84 0 162.571-31.714t139.714-89.429l74.286 73.714q16.571 17.714 40 8 22.286-9.714 22.286-33.714z" horiz-adv-x="878" />
<glyph unicode="&#xf045;" d="M804.571 394.857v-148q0-68-48.286-116.286t-116.286-48.286h-475.429q-68 0-116.286 48.286t-48.286 116.286v475.429q0 68 48.286 116.286t116.286 48.286h145.714q7.429 0 12.857-5.429t5.429-12.857q0-15.429-14.857-18.286-44-14.857-76-34.286-5.714-2.286-9.143-2.286h-64q-37.714 0-64.571-26.857t-26.857-64.571v-475.429q0-37.714 26.857-64.571t64.571-26.857h475.429q37.714 0 64.571 26.857t26.857 64.571v122.286q0 10.857 10.286 16.571 16 7.429 30.857 21.143 9.143 9.143 20 4.571 12-5.143 12-16.571zM940 678.286l-219.429-219.429q-10.286-10.857-25.714-10.857-6.857 0-14.286 2.857-22.286 9.714-22.286 33.714v109.714h-91.429q-184.571 0-250.286-74.857-68-78.286-42.286-270.286 1.714-13.143-11.429-19.429-4.571-1.143-6.857-1.143-9.143 0-14.857 7.429-5.714 8-12 17.714t-22.571 39.143-28.286 56.857-22 65.143-10 69.714q0 28 2 52t8 51.429 16 50.286 26.857 46.571 39.143 42.286 54 35.143 71.143 27.714 91.143 17.429 112.286 6.286h91.429v109.714q0 24 22.286 33.714 7.429 2.857 14.286 2.857 14.857 0 25.714-10.857l219.429-219.429q10.857-10.857 10.857-25.714t-10.857-25.714z" horiz-adv-x="951" />
<glyph unicode="&#xf046;" d="M804.571 394.857v-148q0-68-48.286-116.286t-116.286-48.286h-475.429q-68 0-116.286 48.286t-48.286 116.286v475.429q0 68 48.286 116.286t116.286 48.286h145.714q7.429 0 12.857-5.429t5.429-12.857q0-15.429-14.857-18.286-44-14.857-76-34.286-5.714-2.286-9.143-2.286h-64q-37.714 0-64.571-26.857t-26.857-64.571v-475.429q0-37.714 26.857-64.571t64.571-26.857h475.429q37.714 0 64.571 26.857t26.857 64.571v122.286q0 10.857 10.286 16.571 16 7.429 30.857 21.143 9.143 9.143 20 4.571 12-5.143 12-16.571zM940 678.286l-219.429-219.429q-10.286-10.857-25.714-10.857-6.857 0-14.286 2.857-22.286 9.714-22.286 33.714v109.714h-91.429q-184.571 0-250.286-74.857-68-78.286-42.286-270.286 1.714-13.143-11.429-19.429-4.571-1.143-6.857-1.143-9.143 0-14.857 7.429-5.714 8-12 17.714t-22.571 39.143-28.286 56.857-22 65.143-10 69.714q0 28 2 52t8 51.429 16 50.286 26.857 46.571 39.143 42.286 54 35.143 71.143 27.714 91.143 17.429 112.286 6.286h91.429v109.714q0 24 22.286 33.714 7.429 2.857 14.286 2.857 14.857 0 25.714-10.857l219.429-219.429q10.857-10.857 10.857-25.714t-10.857-25.714z" horiz-adv-x="951" />
<glyph unicode="&#xf05e;" d="M731.429 448q0 79.429-40.571 148.571l-400.571-400.571q69.143-40.571 148.571-40.571 59.429 0 113.429 23.143t93.429 62.571 62.571 93.429 23.143 113.429zM186.857 299.429l400.571 400.571q-69.143 40.571-148.571 40.571-59.429 0-113.429-23.143t-93.429-62.571-62.571-93.429-23.143-113.429q0-79.429 40.571-148.571zM877.714 448q0-119.429-58.857-220.286t-159.714-159.714-220.286-58.857-220.286 58.857-159.714 159.714-58.857 220.286 58.857 220.286 159.714 159.714 220.286 58.857 220.286-58.857 159.714-159.714 58.857-220.286z" horiz-adv-x="878" />
<glyph unicode="&#xf05f;" d="M731.429 448q0 79.429-40.571 148.571l-400.571-400.571q69.143-40.571 148.571-40.571 59.429 0 113.429 23.143t93.429 62.571 62.571 93.429 23.143 113.429zM186.857 299.429l400.571 400.571q-69.143 40.571-148.571 40.571-59.429 0-113.429-23.143t-93.429-62.571-62.571-93.429-23.143-113.429q0-79.429 40.571-148.571zM877.714 448q0-119.429-58.857-220.286t-159.714-159.714-220.286-58.857-220.286 58.857-159.714 159.714-58.857 220.286 58.857 220.286 159.714 159.714 220.286 58.857 220.286-58.857 159.714-159.714 58.857-220.286z" horiz-adv-x="878" />
<glyph unicode="&#xf067;" d="M804.571 539.429v-109.714q0-22.857-16-38.857t-38.857-16h-237.714v-237.714q0-22.857-16-38.857t-38.857-16h-109.714q-22.857 0-38.857 16t-16 38.857v237.714h-237.714q-22.857 0-38.857 16t-16 38.857v109.714q0 22.857 16 38.857t38.857 16h237.714v237.714q0 22.857 16 38.857t38.857 16h109.714q22.857 0 38.857-16t16-38.857v-237.714h237.714q22.857 0 38.857-16t16-38.857z" horiz-adv-x="805" />
<glyph unicode="&#xf068;" d="M804.571 539.429v-109.714q0-22.857-16-38.857t-38.857-16h-694.857q-22.857 0-38.857 16t-16 38.857v109.714q0 22.857 16 38.857t38.857 16h694.857q22.857 0 38.857-16t16-38.857z" horiz-adv-x="805" />
<glyph unicode="&#xf069;" d="M804.571 539.429v-109.714q0-22.857-16-38.857t-38.857-16h-237.714v-237.714q0-22.857-16-38.857t-38.857-16h-109.714q-22.857 0-38.857 16t-16 38.857v237.714h-237.714q-22.857 0-38.857 16t-16 38.857v109.714q0 22.857 16 38.857t38.857 16h237.714v237.714q0 22.857 16 38.857t38.857 16h109.714q22.857 0 38.857-16t16-38.857v-237.714h237.714q22.857 0 38.857-16t16-38.857z" horiz-adv-x="805" />
<glyph unicode="&#xf06a;" d="M804.571 539.429v-109.714q0-22.857-16-38.857t-38.857-16h-694.857q-22.857 0-38.857 16t-16 38.857v109.714q0 22.857 16 38.857t38.857 16h694.857q22.857 0 38.857-16t16-38.857z" horiz-adv-x="805" />
<glyph unicode="&#xf085;" d="M512 448q0 60.571-42.857 103.429t-103.429 42.857-103.429-42.857-42.857-103.429 42.857-103.429 103.429-42.857 103.429 42.857 42.857 103.429zM950.857 155.429q0 29.714-21.714 51.429t-51.429 21.714-51.429-21.714-21.714-51.429q0-30.286 21.429-51.714t51.714-21.429 51.714 21.429 21.429 51.714zM950.857 740.571q0 29.714-21.714 51.429t-51.429 21.714-51.429-21.714-21.714-51.429q0-30.286 21.429-51.714t51.714-21.429 51.714 21.429 21.429 51.714zM731.429 500v-105.714q0-5.714-4-11.143t-9.143-6l-88.571-13.714q-6.286-20-18.286-43.429 19.429-27.429 51.429-65.714 4-5.714 4-11.429 0-6.857-4-10.857-13.143-17.143-47.143-51.143t-44.857-34q-6.286 0-12 4l-65.714 51.429q-21.143-10.857-44-17.714-6.286-61.714-13.143-88.571-4-13.714-17.143-13.714h-106.286q-6.286 0-11.429 4.286t-5.714 10l-13.143 87.429q-19.429 5.714-42.857 17.714l-67.429-50.857q-4-4-11.429-4-6.286 0-12 4.571-82.286 76-82.286 91.429 0 5.143 4 10.857 5.714 8 23.429 30.286t26.857 34.857q-13.143 25.143-20 46.857l-86.857 13.714q-5.714 0.571-9.714 5.429t-4 11.143v105.714q0 5.714 4 11.143t9.143 6l88.571 13.714q6.286 20 18.286 43.429-19.429 27.429-51.429 65.714-4 6.286-4 11.429 0 6.857 4 11.429 12.571 17.143 46.857 50.857t45.143 33.714q6.286 0 12-4l65.714-51.429q19.429 10.286 44 18.286 6.286 61.714 13.143 88 4 13.714 17.143 13.714h106.286q6.286 0 11.429-4.286t5.714-10l13.143-87.429q19.429-5.714 42.857-17.714l67.429 50.857q4.571 4 11.429 4 6.286 0 12-4.571 82.286-76 82.286-91.429 0-5.143-4-10.857-6.857-9.143-24-30.857t-25.714-34.286q13.143-27.429 19.429-46.857l86.857-13.143q5.714-1.143 9.714-6t4-11.143zM1097.143 195.429v-80q0-9.143-85.143-17.714-6.857-15.429-17.143-29.714 29.143-64.571 29.143-78.857 0-2.286-2.286-4-69.714-40.571-70.857-40.571-4.571 0-26.286 26.857t-29.714 38.857q-11.429-1.143-17.143-1.143t-17.143 1.143q-8-12-29.714-38.857t-26.286-26.857q-1.143 0-70.857 40.571-2.286 1.714-2.286 4 0 14.286 29.143 78.857-10.286 14.286-17.143 29.714-85.143 8.571-85.143 17.714v80q0 9.143 85.143 17.714 7.429 16.571 17.143 29.714-29.143 64.571-29.143 78.857 0 2.286 2.286 4 2.286 1.143 20 11.429t33.714 19.429 17.143 9.143q4.571 0 26.286-26.571t29.714-38.571q11.429 1.143 17.143 1.143t17.143-1.143q29.143 40.571 52.571 64l3.429 1.143q2.286 0 70.857-40 2.286-1.714 2.286-4 0-14.286-29.143-78.857 9.714-13.143 17.143-29.714 85.143-8.571 85.143-17.714zM1097.143 780.571v-80q0-9.143-85.143-17.714-6.857-15.429-17.143-29.714 29.143-64.571 29.143-78.857 0-2.286-2.286-4-69.714-40.571-70.857-40.571-4.571 0-26.286 26.857t-29.714 38.857q-11.429-1.143-17.143-1.143t-17.143 1.143q-8-12-29.714-38.857t-26.286-26.857q-1.143 0-70.857 40.571-2.286 1.714-2.286 4 0 14.286 29.143 78.857-10.286 14.286-17.143 29.714-85.143 8.571-85.143 17.714v80q0 9.143 85.143 17.714 7.429 16.571 17.143 29.714-29.143 64.571-29.143 78.857 0 2.286 2.286 4 2.286 1.143 20 11.429t33.714 19.429 17.143 9.143q4.571 0 26.286-26.571t29.714-38.571q11.429 1.143 17.143 1.143t17.143-1.143q29.143 40.571 52.571 64l3.429 1.143q2.286 0 70.857-40 2.286-1.714 2.286-4 0-14.286-29.143-78.857 9.714-13.143 17.143-29.714 85.143-8.571 85.143-17.714z" horiz-adv-x="1097" />
<glyph unicode="&#xf086;" d="M512 448q0 60.571-42.857 103.429t-103.429 42.857-103.429-42.857-42.857-103.429 42.857-103.429 103.429-42.857 103.429 42.857 42.857 103.429zM950.857 155.429q0 29.714-21.714 51.429t-51.429 21.714-51.429-21.714-21.714-51.429q0-30.286 21.429-51.714t51.714-21.429 51.714 21.429 21.429 51.714zM950.857 740.571q0 29.714-21.714 51.429t-51.429 21.714-51.429-21.714-21.714-51.429q0-30.286 21.429-51.714t51.714-21.429 51.714 21.429 21.429 51.714zM731.429 500v-105.714q0-5.714-4-11.143t-9.143-6l-88.571-13.714q-6.286-20-18.286-43.429 19.429-27.429 51.429-65.714 4-5.714 4-11.429 0-6.857-4-10.857-13.143-17.143-47.143-51.143t-44.857-34q-6.286 0-12 4l-65.714 51.429q-21.143-10.857-44-17.714-6.286-61.714-13.143-88.571-4-13.714-17.143-13.714h-106.286q-6.286 0-11.429 4.286t-5.714 10l-13.143 87.429q-19.429 5.714-42.857 17.714l-67.429-50.857q-4-4-11.429-4-6.286 0-12 4.571-82.286 76-82.286 91.429 0 5.143 4 10.857 5.714 8 23.429 30.286t26.857 34.857q-13.143 25.143-20 46.857l-86.857 13.714q-5.714 0.571-9.714 5.429t-4 11.143v105.714q0 5.714 4 11.143t9.143 6l88.571 13.714q6.286 20 18.286 43.429-19.429 27.429-51.429 65.714-4 6.286-4 11.429 0 6.857 4 11.429 12.571 17.143 46.857 50.857t45.143 33.714q6.286 0 12-4l65.714-51.429q19.429 10.286 44 18.286 6.286 61.714 13.143 88 4 13.714 17.143 13.714h106.286q6.286 0 11.429-4.286t5.714-10l13.143-87.429q19.429-5.714 42.857-17.714l67.429 50.857q4.571 4 11.429 4 6.286 0 12-4.571 82.286-76 82.286-91.429 0-5.143-4-10.857-6.857-9.143-24-30.857t-25.714-34.286q13.143-27.429 19.429-46.857l86.857-13.143q5.714-1.143 9.714-6t4-11.143zM1097.143 195.429v-80q0-9.143-85.143-17.714-6.857-15.429-17.143-29.714 29.143-64.571 29.143-78.857 0-2.286-2.286-4-69.714-40.571-70.857-40.571-4.571 0-26.286 26.857t-29.714 38.857q-11.429-1.143-17.143-1.143t-17.143 1.143q-8-12-29.714-38.857t-26.286-26.857q-1.143 0-70.857 40.571-2.286 1.714-2.286 4 0 14.286 29.143 78.857-10.286 14.286-17.143 29.714-85.143 8.571-85.143 17.714v80q0 9.143 85.143 17.714 7.429 16.571 17.143 29.714-29.143 64.571-29.143 78.857 0 2.286 2.286 4 2.286 1.143 20 11.429t33.714 19.429 17.143 9.143q4.571 0 26.286-26.571t29.714-38.571q11.429 1.143 17.143 1.143t17.143-1.143q29.143 40.571 52.571 64l3.429 1.143q2.286 0 70.857-40 2.286-1.714 2.286-4 0-14.286-29.143-78.857 9.714-13.143 17.143-29.714 85.143-8.571 85.143-17.714zM1097.143 780.571v-80q0-9.143-85.143-17.714-6.857-15.429-17.143-29.714 29.143-64.571 29.143-78.857 0-2.286-2.286-4-69.714-40.571-70.857-40.571-4.571 0-26.286 26.857t-29.714 38.857q-11.429-1.143-17.143-1.143t-17.143 1.143q-8-12-29.714-38.857t-26.286-26.857q-1.143 0-70.857 40.571-2.286 1.714-2.286 4 0 14.286 29.143 78.857-10.286 14.286-17.143 29.714-85.143 8.571-85.143 17.714v80q0 9.143 85.143 17.714 7.429 16.571 17.143 29.714-29.143 64.571-29.143 78.857 0 2.286 2.286 4 2.286 1.143 20 11.429t33.714 19.429 17.143 9.143q4.571 0 26.286-26.571t29.714-38.571q11.429 1.143 17.143 1.143t17.143-1.143q29.143 40.571 52.571 64l3.429 1.143q2.286 0 70.857-40 2.286-1.714 2.286-4 0-14.286-29.143-78.857 9.714-13.143 17.143-29.714 85.143-8.571 85.143-17.714z" horiz-adv-x="1097" />
<glyph unicode="&#xf08e;" d="M804.571 429.714v-182.857q0-68-48.286-116.286t-116.286-48.286h-475.429q-68 0-116.286 48.286t-48.286 116.286v475.429q0 68 48.286 116.286t116.286 48.286h402.286q8 0 13.143-5.143t5.143-13.143v-36.571q0-8-5.143-13.143t-13.143-5.143h-402.286q-37.714 0-64.571-26.857t-26.857-64.571v-475.429q0-37.714 26.857-64.571t64.571-26.857h475.429q37.714 0 64.571 26.857t26.857 64.571v182.857q0 8 5.143 13.143t13.143 5.143h36.571q8 0 13.143-5.143t5.143-13.143zM1024 923.429v-292.571q0-14.857-10.857-25.714t-25.714-10.857-25.714 10.857l-100.571 100.571-372.571-372.571q-5.714-5.714-13.143-5.714t-13.143 5.714l-65.143 65.143q-5.714 5.714-5.714 13.143t5.714 13.143l372.571 372.571-100.571 100.571q-10.857 10.857-10.857 25.714t10.857 25.714 25.714 10.857h292.571q14.857 0 25.714-10.857t10.857-25.714z" />
<glyph unicode="&#xf08f;" d="M804.571 429.714v-182.857q0-68-48.286-116.286t-116.286-48.286h-475.429q-68 0-116.286 48.286t-48.286 116.286v475.429q0 68 48.286 116.286t116.286 48.286h402.286q8 0 13.143-5.143t5.143-13.143v-36.571q0-8-5.143-13.143t-13.143-5.143h-402.286q-37.714 0-64.571-26.857t-26.857-64.571v-475.429q0-37.714 26.857-64.571t64.571-26.857h475.429q37.714 0 64.571 26.857t26.857 64.571v182.857q0 8 5.143 13.143t13.143 5.143h36.571q8 0 13.143-5.143t5.143-13.143zM1024 923.429v-292.571q0-14.857-10.857-25.714t-25.714-10.857-25.714 10.857l-100.571 100.571-372.571-372.571q-5.714-5.714-13.143-5.714t-13.143 5.714l-65.143 65.143q-5.714 5.714-5.714 13.143t5.714 13.143l372.571 372.571-100.571 100.571q-10.857 10.857-10.857 25.714t10.857 25.714 25.714 10.857h292.571q14.857 0 25.714-10.857t10.857-25.714z" />
<glyph unicode="&#xf0c9;" d="M877.714 192v-73.143q0-14.857-10.857-25.714t-25.714-10.857h-804.571q-14.857 0-25.714 10.857t-10.857 25.714v73.143q0 14.857 10.857 25.714t25.714 10.857h804.571q14.857 0 25.714-10.857t10.857-25.714zM877.714 484.571v-73.143q0-14.857-10.857-25.714t-25.714-10.857h-804.571q-14.857 0-25.714 10.857t-10.857 25.714v73.143q0 14.857 10.857 25.714t25.714 10.857h804.571q14.857 0 25.714-10.857t10.857-25.714zM877.714 777.143v-73.143q0-14.857-10.857-25.714t-25.714-10.857h-804.571q-14.857 0-25.714 10.857t-10.857 25.714v73.143q0 14.857 10.857 25.714t25.714 10.857h804.571q14.857 0 25.714-10.857t10.857-25.714z" horiz-adv-x="878" />
<glyph unicode="&#xf0ca;" d="M877.714 192v-73.143q0-14.857-10.857-25.714t-25.714-10.857h-804.571q-14.857 0-25.714 10.857t-10.857 25.714v73.143q0 14.857 10.857 25.714t25.714 10.857h804.571q14.857 0 25.714-10.857t10.857-25.714zM877.714 484.571v-73.143q0-14.857-10.857-25.714t-25.714-10.857h-804.571q-14.857 0-25.714 10.857t-10.857 25.714v73.143q0 14.857 10.857 25.714t25.714 10.857h804.571q14.857 0 25.714-10.857t10.857-25.714zM877.714 777.143v-73.143q0-14.857-10.857-25.714t-25.714-10.857h-804.571q-14.857 0-25.714 10.857t-10.857 25.714v73.143q0 14.857 10.857 25.714t25.714 10.857h804.571q14.857 0 25.714-10.857t10.857-25.714z" horiz-adv-x="878" />
<glyph unicode="&#xf0ed;" d="M731.429 429.714q0 8-5.143 13.143t-13.143 5.143h-128v201.143q0 7.429-5.429 12.857t-12.857 5.429h-109.714q-7.429 0-12.857-5.429t-5.429-12.857v-201.143h-128q-7.429 0-12.857-5.429t-5.429-12.857q0-8 5.143-13.143l201.143-201.143q5.143-5.143 13.143-5.143t13.143 5.143l200.571 200.571q5.714 6.857 5.714 13.714zM1097.143 301.714q0-90.857-64.286-155.143t-155.143-64.286h-621.714q-105.714 0-180.857 75.143t-75.143 180.857q0 74.286 40 137.143t107.429 94.286q-1.143 17.143-1.143 24.571 0 121.143 85.714 206.857t206.857 85.714q89.143 0 163.143-49.714t107.714-132q40.571 35.429 94.857 35.429 60.571 0 103.429-42.857t42.857-103.429q0-43.429-23.429-78.857 74.286-17.714 122-77.429t47.714-136.286z" horiz-adv-x="1097" />
<glyph unicode="&#xf0ee;" d="M731.429 429.714q0 8-5.143 13.143t-13.143 5.143h-128v201.143q0 7.429-5.429 12.857t-12.857 5.429h-109.714q-7.429 0-12.857-5.429t-5.429-12.857v-201.143h-128q-7.429 0-12.857-5.429t-5.429-12.857q0-8 5.143-13.143l201.143-201.143q5.143-5.143 13.143-5.143t13.143 5.143l200.571 200.571q5.714 6.857 5.714 13.714zM1097.143 301.714q0-90.857-64.286-155.143t-155.143-64.286h-621.714q-105.714 0-180.857 75.143t-75.143 180.857q0 74.286 40 137.143t107.429 94.286q-1.143 17.143-1.143 24.571 0 121.143 85.714 206.857t206.857 85.714q89.143 0 163.143-49.714t107.714-132q40.571 35.429 94.857 35.429 60.571 0 103.429-42.857t42.857-103.429q0-43.429-23.429-78.857 74.286-17.714 122-77.429t47.714-136.286z" horiz-adv-x="1097" />
<glyph unicode="&#xf110;" d="M283.429 192q0-34.286-24.286-58.286t-58-24q-34.286 0-58.286 24t-24 58.286 24 58.286 58.286 24q33.714 0 58-24t24.286-58.286zM530.286 82.286q0-30.286-21.429-51.714t-51.714-21.429-51.714 21.429-21.429 51.714 21.429 51.714 51.714 21.429 51.714-21.429 21.429-51.714zM182.857 448q0-37.714-26.857-64.571t-64.571-26.857-64.571 26.857-26.857 64.571 26.857 64.571 64.571 26.857 64.571-26.857 26.857-64.571zM777.143 192q0-26.286-18.857-45.143t-45.143-18.857-45.143 18.857-18.857 45.143 18.857 45.143 45.143 18.857 45.143-18.857 18.857-45.143zM301.714 704q0-41.714-29.429-71.143t-71.143-29.429-71.143 29.429-29.429 71.143 29.429 71.143 71.143 29.429 71.143-29.429 29.429-71.143zM566.857 813.714q0-45.714-32-77.714t-77.714-32-77.714 32-32 77.714 32 77.714 77.714 32 77.714-32 32-77.714zM877.714 448q0-22.857-16-38.857t-38.857-16-38.857 16-16 38.857 16 38.857 38.857 16 38.857-16 16-38.857zM758.857 704q0-18.857-13.429-32.286t-32.286-13.429-32.286 13.429-13.429 32.286 13.429 32.286 32.286 13.429 32.286-13.429 13.429-32.286z" horiz-adv-x="896" />
<glyph unicode="&#xf111;" d="M877.714 448q0-119.429-58.857-220.286t-159.714-159.714-220.286-58.857-220.286 58.857-159.714 159.714-58.857 220.286 58.857 220.286 159.714 159.714 220.286 58.857 220.286-58.857 159.714-159.714 58.857-220.286z" horiz-adv-x="878" />
<glyph unicode="&#xf112;" d="M1024 320q0-94.857-72.571-257.714-1.714-4-6-13.714t-7.714-17.143-7.429-12.571q-6.857-9.714-16-9.714-8.571 0-13.429 5.714t-4.857 14.286q0 5.143 1.429 15.143t1.429 13.429q2.857 38.857 2.857 70.286 0 57.714-10 103.429t-27.714 79.143-45.714 57.714-60.286 39.714-76 24.286-88 12.286-100.286 3.429h-128v-146.286q0-14.857-10.857-25.714t-25.714-10.857-25.714 10.857l-292.571 292.571q-10.857 10.857-10.857 25.714t10.857 25.714l292.571 292.571q10.857 10.857 25.714 10.857t25.714-10.857 10.857-25.714v-146.286h128q407.429 0 500-230.286 30.286-76.571 30.286-190.286z" />
<glyph unicode="&#xf113;" d="M877.714 448q0-119.429-58.857-220.286t-159.714-159.714-220.286-58.857-220.286 58.857-159.714 159.714-58.857 220.286 58.857 220.286 159.714 159.714 220.286 58.857 220.286-58.857 159.714-159.714 58.857-220.286z" horiz-adv-x="878" />
<glyph unicode="&#xf114;" d="M1024 320q0-94.857-72.571-257.714-1.714-4-6-13.714t-7.714-17.143-7.429-12.571q-6.857-9.714-16-9.714-8.571 0-13.429 5.714t-4.857 14.286q0 5.143 1.429 15.143t1.429 13.429q2.857 38.857 2.857 70.286 0 57.714-10 103.429t-27.714 79.143-45.714 57.714-60.286 39.714-76 24.286-88 12.286-100.286 3.429h-128v-146.286q0-14.857-10.857-25.714t-25.714-10.857-25.714 10.857l-292.571 292.571q-10.857 10.857-10.857 25.714t10.857 25.714l292.571 292.571q10.857 10.857 25.714 10.857t25.714-10.857 10.857-25.714v-146.286h128q407.429 0 500-230.286 30.286-76.571 30.286-190.286z" />
<glyph unicode="&#xf115;" d="M283.429 192q0-34.286-24.286-58.286t-58-24q-34.286 0-58.286 24t-24 58.286 24 58.286 58.286 24q33.714 0 58-24t24.286-58.286zM530.286 82.286q0-30.286-21.429-51.714t-51.714-21.429-51.714 21.429-21.429 51.714 21.429 51.714 51.714 21.429 51.714-21.429 21.429-51.714zM182.857 448q0-37.714-26.857-64.571t-64.571-26.857-64.571 26.857-26.857 64.571 26.857 64.571 64.571 26.857 64.571-26.857 26.857-64.571zM777.143 192q0-26.286-18.857-45.143t-45.143-18.857-45.143 18.857-18.857 45.143 18.857 45.143 45.143 18.857 45.143-18.857 18.857-45.143zM301.714 704q0-41.714-29.429-71.143t-71.143-29.429-71.143 29.429-29.429 71.143 29.429 71.143 71.143 29.429 71.143-29.429 29.429-71.143zM566.857 813.714q0-45.714-32-77.714t-77.714-32-77.714 32-32 77.714 32 77.714 77.714 32 77.714-32 32-77.714zM877.714 448q0-22.857-16-38.857t-38.857-16-38.857 16-16 38.857 16 38.857 38.857 16 38.857-16 16-38.857zM758.857 704q0-18.857-13.429-32.286t-32.286-13.429-32.286 13.429-13.429 32.286 13.429 32.286 32.286 13.429 32.286-13.429 13.429-32.286z" horiz-adv-x="896" />
</font>
</defs>
</svg>
